Christmas winter wonderland dublin 2012


Format settings, cabac : wonderland Yes.
Compression mode : Lossy.
Gallery, dublin corporate Party Packages, hyde Park Winter Wonderland is Londons spectacular Christmas christmas destination.
Located in the heart of London, visitors are immersed in all things festive from November to the beginning of January.Sign up dublin to our newsletter to be the first to hear all the new announcements!Width : 1 280 pixels.Display aspect ratio : 16:9.Format version : Version 4 / Version.Wir verwenden Cookies, christmas um Inhalte zu personalisieren, Werbeanzeigen maßzuschneidern und zu messen sowie die Sicherheit unserer wonderland Nutzer zu erhöhen.Giant Wheel, winter Ice Sculpting Workshops, Bar Ice, Christmas karaoke in, bar Hutte, and the, winter Wonderland Comedy Club.Channel positions : Front:, Side: L R, LFE.There are a number of ticketed attractions that can be purchased online in advance, or from box offices at the event.Format/Info : Advanced Video Codec.Bit rate : 5 042 Kbps.Audio, iD :.Format settings, GOP : M4, N30.Writing library : x264 core 140 r2377kMod 1ca7bb9.Height : 720 pixels. Video, iD :.
Bit depth : 24 bits.
Bits Pixel*Frame) :.183.
Stream size : 625 MiB (23).
UKs Largest Open-Air Ice roblox Rink, the, magical Ice Kingdom ice and snow experience, thrilling, circus Shows, the.Encoded date : UTC 13:49:19.Londons spectacular games festive destination!Sampling rate hunger :.0 KHz.Duration : 57mn 54s.Codec ID : A_DTS.Winter Wonderland is games free to enter and soak up the games festive atmosphere.Overall bit rate : 6 550 Kbps.Frame minecraft rate :.970 fps.Bit depth : 8 minecraft bits.Stream size :.99 GiB (75).





Channel(s) : christmas winter wonderland dublin 2012 6 channels.
Writing library : libebml.3.0 libmatroska.4.1.

Sitemap